Загрузка...

Extreme_public_piss5.avi (2004) DVDRip

Информация о торренте

Cкачать «Extreme_public_piss5.avi (2004) DVDRip» с помощью MediaGet
Автоматическая загрузка файла через новый бесплатный торрент клиент
Название: Extreme_public_piss5.avi
Год выхода: 2004
Раздел: Xtreme
Время: 76 мин
Описание:

УЛИЧНЫЙ ПИСС

РАЗДАЮ ДО ПЕРВЫХ 5

Format : AVI
Format/Info : Audio Video Interleave
File size : 800 MiB
Duration : 1h 16mn
Overall bit rate : 1 465 Kbps
Video
Format : MPEG-4 Visual
Format settings, BVOP : No
Format settings, QPel : No
Format settings, GMC : No warppoints
Format settings, Matrix : Default
Codec ID : DX50
Codec ID/Hint : DivX 5
Duration : 1h 16mn
Bit rate : 1 330 Kbps
Width : 688 pixels
Height : 512 pixels
Display aspect ratio : 4/3
Frame rate : 25.000 fps
Resolution : 24 bits
Colorimetry : 4:2:0
Scan type : Progressive
Bits/(Pixel*Frame) : 0.151
Stream size : 726 MiB (91%)
Writing library : DivX 5.1.1 (Maupiti) (UTC 2003-11-19)
Audio
Format : MPEG Audio
Format version : Version 1
Format profile : Layer 3
Codec ID : 55
Codec ID/Hint : MP3
Duration : 1h 16mn
Bit rate mode : Constant
Bit rate : 128 Kbps
Channel(s) : 2 channels
Sampling rate : 44.1 KHz
Resolution : 16 bits
Stream size : 69.9 MiB (9%)
Alignment : Split accross interleaves
Interleave, duration : 720 ms (18.00 video frames)

Качество: DVDRip
Формат: AVI
Размер: 800.15 Мб
Поблагодарили: 4 раз Сказать спасибо
Список поблагодаривших:
petrask, Olddok, Wolf_one, timonn48
Файлов: 1 Показать список

Раздает muvd

 

Информация о пирах

Сидов: 0 Личеров: 0 Скачан: 2304

Как скачать с сайта

  • 1. Качаем UTorrent отсюда.
  • 2. После установки, жмем на ссылку СКАЧАТЬ.
  • 3. Сохраняем torrent-файл.
  • 4. Открываем .torrent файл, выбираем куда скачается фильм, жмем ОК.
  • 5. Качаем.

Комментарии     

Отсутствует на сайтеOffline
  • muvd
  • Участник [ ЛС ]
  • Стаж: 9 г. 2 м. 1 дн.
Дата 03 сентября 2009 в 15:05   Неудачный комментарий  0  Хороший комментарий 5 из 34

 
Отсутствует на сайтеOffline
Дата 19 сентября 2009 в 07:24   Неудачный комментарий  0  Хороший комментарий ДАВАЙ ВСЕ СЕРИИ. СПАСИБО БОЛьШОЕ ЗА ОРИГИНАЛьНУЮ ТЕМУ!!!
+ MAY BE HD OR BLU RAY...?!! (!!!)

 
Отсутствует на сайтеOffline
  • Wolf_one
  • Участник [ ЛС ]
  • Стаж: 8 г. 8 м. 6 дн.
Дата 02 октября 2009 в 10:41   Неудачный комментарий  0  Хороший комментарий Благодарю!!!

 
Включить слежение за новыми комментариями в режиме реального времени

Чтобы оставить комментарий, нужно зарегистрироваться на сайте!