Загрузка...

[Legalporno.com] Kira Thorne 100 Percent Double Anal With 0 Percent Pussy Fucking SZ1690 (2017) HD 720p (2017) Other

Информация о торренте

Автоматическая загрузка файла через новый бесплатный торрент клиент
Название: [Legalporno.com] Kira Thorne 100 Percent Double Anal With 0 Percent Pussy Fucking SZ1690 (2017) HD 720p
Год выхода: 2017
Раздел: Anal
Время: 58 мин
Описание:

Год выхода: 2017
Название: Kira Thorne 100 Percent Double Anal With 0 Percent Pussy Fucking SZ1690
В ролях: Kira Thorn
Выпущено: LegalPorno.com
Жанр: Teen, Anal, Group, Double Penetration, All Sex, Amateur, Hardcore, Facial, Students, Interracial, Blowjob, Cumshots, Slender, Shaved, Blonde, Natural Tits
Продолжительность: 00:58:21
Техданные
Видео
Идентификатор : 2
Формат : AVC
Формат/Информация : Advanced Video Codec
Профиль формата : [email protected]
Параметр CABAC формата : Да
Параметр RefFrames формата : 4 кадра
Идентификатор кодека : avc1
Идентификатор кодека/Информация : Advanced Video Coding
Продолжительность : 58 м. 21 с.
Битрейт : 4500 Кбит/сек
Ширина : 1280 пикселей
Высота : 720 пикселей
Соотношение сторон : 16:9
Режим частоты кадров : Постоянный
Частота кадров : 50,000 кадров/сек
Цветовое пространство : YUV
Субдискретизация насыщенности : 4:2:0
Битовая глубина : 8 бит
Тип развёртки : Прогрессивная
Бит/(Пиксели*Кадры) : 0.098
Размер потока : 1,84 Гбайт (96%)
Библиотека кодирования : x264 core 148 r2643 5c65704
Настройки программы : cabac=1 / ref=3 / deblock=1:0:0 / analyse=0x3:0x113 / me=hex / subme=7 / psy=1 / psy_rd=1.00:0.00 / mixed_ref=1 / me_range=16 / chroma_me=1 / trellis=1 / 8x8dct=1 / cqm=0 / deadzone=21,11 / fast_pskip=1 / chroma_qp_offset=-2 / threads=6 / lookahead_threads=1 / sliced_threads=0 / nr=0 / decimate=1 / interlaced=0 / bluray_compat=0 / constrained_intra=0 / bframes=3 / b_pyramid=2 / b_adapt=1 / b_bias=0 / direct=1 / weightb=1 / open_gop=0 / weightp=2 / keyint=250 / keyint_min=25 / scenecut=40 / intra_refresh=0 / rc_lookahead=40 / rc=abr / mbtree=1 / bitrate=4500 / ratetol=1.0 / qcomp=0.60 / qpmin=0 / qpmax=69 / qpstep=4 / ip_ratio=1.40 / aq=1:1.00

Аудио
Идентификатор : 1
Формат : AAC
Формат/Информация : Advanced Audio Codec
Профиль формата : LC
Идентификатор кодека : 40
Продолжительность : 58 м. 21 с.
Duration_LastFrame : -2 мс.
Вид битрейта : Постоянный
Битрейт : 197 Кбит/сек
Каналы : 2 канала
Расположение каналов : Front: L R
Частота : 44,1 КГц
Частота кадров : 43,066 кадра/сек (1024 SPF)
Метод сжатия : С потерями
Размер потока : 82,0 Мбайт (4%)
Default : Да
AlternateGroup/String : 1

Качество: Other
Формат: MP4
Размер: 1.93 Гб
Поблагодарили: 2 раз Сказать спасибо
Список поблагодаривших:
Metodone, ava359
Файлов: 1 Показать список

Раздает SteveHolms

 

Информация о пирах

Сидов: 8 Личеров: 2 Скачан: 34

Как скачать с сайта

  • 1. Качаем UTorrent отсюда.
  • 2. После установки, жмем на ссылку СКАЧАТЬ.
  • 3. Сохраняем torrent-файл.
  • 4. Открываем .torrent файл, выбираем куда скачается фильм, жмем ОК.
  • 5. Качаем.

Комментарии     

Отсутствует на сайтеOffline
  • ava359
  • Участник [ ЛС ]
  • Стаж: 7 г. 11 м. 5 дн.
Дата 12 октября 2017 в 18:43   Неудачный комментарий  0  Хороший комментарий

 
Включить слежение за новыми комментариями в режиме реального времени

Чтобы оставить комментарий, нужно зарегистрироваться на сайте!