Загрузка...

[MilfsLikeItBig.com / Brazzers.com] Ava Koxxx (What Ms. Koxxx Wants / 01.01.2018) [2017 г., Anal,First Anal,Big Tits,Big Tits Worship,Brunette,Cheating,Couples Fantasies,Creampie,Feet,MILF,Mom,Voyeur,Wife,Amazon, 720p] (2018) HDTV

Информация о торренте

Название: [MilfsLikeItBig.com / Brazzers.com] Ava Koxxx (What Ms. Koxxx Wants / 01.01.2018) [2017 г., Anal,First Anal,Big Tits,Big Tits Worship,Brunette,Cheating,Couples Fantasies,Creampie,Feet,MILF,Mom,Voyeur,Wife,Amazon, 720p]
Год выхода: 2018
Раздел: Anal
Время: 33 мин
Описание:

[MilfsLikeItBig.com / Brazzers.com] Ava Koxxx (What Ms. Koxxx Wants / 01.01.2018) [2017 г., Anal,First Anal,Big Tits,Big Tits Worship,Brunette,Cheating,Couples Fantasies,Creampie,Feet,MILVideo
ID : 1
Format : AVC
Format/Info : Advanced Video Codec
Format profile : [email protected]
Format settings, CABAC : Yes
Format settings, ReFrames : 5 frames
Codec ID : avc1
Codec ID/Info : Advanced Video Coding
Duration : 32 min 8 s
Bit rate : 8 000 kb/s
Width : 1 280 pixels
Height : 720 pixels
Display aspect ratio : 16:9
Frame rate mode : Constant
Frame rate : 23.976 (23976/1000) FPS
Color space : YUV
Chroma subsampling : 4:2:0
Bit depth : 8 bits
Scan type : Progressive
Bits/(Pixel*Frame) : 0.362
Stream size : 1.79 GiB (98%)
Writing library : x264 core 148 r2665 a01e339
Encoding settings : cabac=1 / ref=5 / deblock=1:0:0 / analyse=0x3:0x113 / me=umh / subme=8 / psy=1 / psy_rd=1.00:0.00 / mixed_ref=1 / me_range=16 / chroma_me=1 / trellis=1 / 8x8dct=1 / cqm=0 / deadzone=21,11 / fast_pskip=1 / chroma_qp_offset=-2 / threads=18 / lookahead_threads=3 / sliced_threads=0 / nr=0 / decimate=1 / interlaced=0 / bluray_compat=0 / constrained_intra=0 / bframes=3 / b_pyramid=2 / b_adapt=2 / b_bias=0 / direct=3 / weightb=1 / open_gop=0 / weightp=2 / keyint=60 / keyint_min=6 / scenecut=40 / intra_refresh=0 / rc_lookahead=50 / rc=abr / mbtree=1 / bitrate=8000 / ratetol=1.0 / qcomp=0.60 / qpmin=0 / qpmax=69 / qpstep=4 / ip_ratio=1.40 / aq=1:1.00
Language : English

Audio
ID : 2
Format : AAC
Format/Info : Advanced Audio Codec
Format profile : LC
Codec ID : 40
Duration : 32 min 8 s
Duration_LastFrame : 21 ms
Bit rate mode : Constant
Bit rate : 128 kb/s
Channel(s) : 2 channels
Channel positions : Front: L R
Sampling rate : 48.0 kHz
Frame rate : 46.875 FPS (1024 spf)
Compression mode : Lossy
Stream size : 29.4 MiB (2%)
Language : English
Default : Yes
Alternate group : 1F,Mom,Voyeur,Wife,Amazon, 720p]

Качество: HDTV
Формат: MP4
Размер: 1.82 Гб
Поблагодарили: 1 раз Сказать спасибо
Список поблагодаривших:
gon
Файлов: 1 Показать список

Раздает SteveHolms

Информация о пирах

Сидов: 6 Личеров: 0 Скачан: 102

Как скачать с сайта

  • 1. Качаем UTorrent отсюда.
  • 2. После установки, жмем на ссылку СКАЧАТЬ.
  • 3. Сохраняем torrent-файл.
  • 4. Открываем .torrent файл, выбираем куда скачается фильм, жмем ОК.
  • 5. Качаем.

Комментарии     

Комментариев не найдено!
Включить слежение за новыми комментариями в режиме реального времени

Чтобы оставить комментарий, нужно зарегистрироваться на сайте!